strippoker
strip pokker

+ ShareSpark.net »  :::: Hollywood Zone » Hollywood Movies (Original Rips)
|- Darkest Hour 2017 720p BluRay H264 AAC - RARBG


Darkest Hour 2017 720p BluRay H264 AAC - RARBG

0 Members and 1 Guest are viewing this topic.

February 14, 2018, 12:56:13 PM
  • Admin
  • Legend Member
  • ****
  • Topic Author
  • Thank You: 1686
  • Reputation: 374
  • Activity:
    31.2%
  • Country: in
  • Posts: 3346
  • Topics: 2005
  • Join Date: Dec 2013
  • ShareSpark Member

Darkest Hour 2017 720p BluRay H264 AAC - RARBG
   


Poster


















 
Video
ID                                       : 1
Format                                   : AVC
Format/Info                              : Advanced Video Codec
Format profile                           : [email protected]
Format settings                          : CABAC / 4 Ref Frames
Format settings, CABAC                   : Yes
Format settings, RefFrames               : 4 frames
Codec ID                                 : avc1
Codec ID/Info                            : Advanced Video Coding
Duration                                 : 2 h 4 min
Bit rate                                 : 1 500 kb/s
Width                                    : 1 280 pixels
Height                                   : 688 pixels
Display aspect ratio                     : 1.85:1
Frame rate mode                          : Constant
Frame rate                               : 23.976 (23976/1000) FPS
Color space                              : YUV
Chroma subsampling                       : 4:2:0
Bit depth                                : 8 bits
Scan type                                : Progressive
Bits/(Pixel*Frame)                       : 0.071
Stream size                              : 1.31 GiB (87%)
Writing library                          : x264 core 152 r2851M ba24899
Encoding settings                        : cabac=1 / ref=4 / deblock=1:-1:-1 / analyse=0x3:0x113 / me=umh / subme=9 / psy=1 / psy_rd=1.00:0.15 / mixed_ref=1 / me_range=24 / chroma_me=1 / trellis=2 / 8x8dct=1 / cqm=0 / deadzone=21,11 / fast_pskip=1 / chroma_qp_offset=-3 / threads=32 / lookahead_threads=4 / sliced_threads=0 / nr=0 / decimate=1 / interlaced=0 / bluray_compat=0 / constrained_intra=0 / bframes=3 / b_pyramid=2 / b_adapt=2 / b_bias=0 / direct=3 / weightb=1 / open_gop=0 / weightp=2 / keyint=250 / keyint_min=25 / scenecut=40 / intra_refresh=0 / rc_lookahead=50 / rc=2pass / mbtree=1 / bitrate=1500 / ratetol=1.0 / qcomp=0.60 / qpmin=0 / qpmax=69 / qpstep=4 / cplxblur=20.0 / qblur=0.5 / vbv_maxrate=31250 / vbv_bufsize=31250 / nal_hrd=none / filler=0 / ip_ratio=1.40 / aq=3:1.00
Encoded date                             : UTC 2018-02-14 00:40:24
Tagged date                              : UTC 2018-02-14 00:40:24

Audio
ID                                       : 2
Format                                   : AAC
Format/Info                              : Advanced Audio Codec
Format profile                           : LC
Codec ID                                 : mp4a-40-2
Duration                                 : 2 h 4 min
Duration_LastFrame                       : -11 ms
Bit rate mode                            : Constant
Bit rate                                 : 224 kb/s
Channel(s)                               : 2 channels
Channel(s)_Original                      : 6 channels
Channel positions                        : Front: L C R, Side: L R, LFE
Sampling rate                            : 48.0 kHz
Frame rate                               : 46.875 FPS (1024 SPF)
Compression mode                         : Lossy
Stream size                              : 200 MiB (13%)
Language                                 : English
Default                                  : Yes
Alternate group                          : 1
Encoded date                             : UTC 2018-02-14 00:40:24
Tagged date                              : UTC 2018-02-14 00:40:24




All Credit Goes To Original Uploader









Subtitle


      






Movie

      


















      
      

Share this topic on FacebookShare this topic on GoogleShare this topic on MySpaceShare this topic on TwitterShare this topic on Yahoo

« Last Edit: February 14, 2018, 12:59:43 PM by тнє ωαll 81317 »



Thanks given by:


February 14, 2018, 04:17:25 PM
Reply #1
  • Conqueror
  • Special Member
  • *****
  • Thank You: 332
  • Reputation: 127
  • Activity:
    100%
  • Country: in
  • Posts: 798
  • Topics: 395
  • Join Date: Oct 2015
  • Hit ThanX Button 🔳 N Repute Button 🔳
Hit Thnx Button 🔳 N + Repute Button 🔳 Always Appreciate UploadeR 🤗 GiVe Respect GeT Respect :yu:

February 14, 2018, 10:05:33 PM
Reply #2
  • Addic7ed
  • Special Member
  • ****
  • Thank You: 220
  • Reputation: 67
  • Activity:
    100%
  • Country: np
  • Posts: 653
  • Topics: 391
  • Join Date: May 2017
  • #Me

Tags:
 

Related Topics

  Subject / Started by Replies Last post
0 Replies
277 Views
Last post January 12, 2018, 04:17:18 PM
by PSYCHO
0 Replies
473 Views
Last post January 12, 2018, 05:39:19 PM
by PSYCHO
0 Replies
238 Views
Last post February 06, 2018, 10:22:20 PM
by UnikAaYush
0 Replies
230 Views
Last post February 08, 2018, 08:40:39 AM
by Kraj23732Kumar
0 Replies
94 Views
Last post February 16, 2018, 07:48:53 PM
by DjiSamSoe




Back to top