Watch movie
Talk-Show

+ ShareSpark.net »  :::: Hollywood Zone » TV Shows » WWE
|- WWE.Smackdown.Live.2018.02.13.HDTV.x264-Ebi


WWE.Smackdown.Live.2018.02.13.HDTV.x264-Ebi

0 Members and 1 Guest are viewing this topic.

February 14, 2018, 09:15:55 AM
  • *****************
  • Head Admin
  • Legend Member
  • *****
  • Topic Author
  • Thank You: 5754
  • Reputation: 2545
  • Activity:
    100%
  • Country: in
  • Posts: 17634
  • Topics: 10518
  • Join Date: Mar 2012
  • The Time Is Now......
WWE.Smackdown.Live.2018.02.13.HDTV.x264-Ebi

General
Complete name                            : U:\WWE.Smackdown.Live.2018.02.13.HDTV.x264-Ebi.mp4
Format                                   : MPEG-4
Format profile                           : Base Media / Version 2
Codec ID                                 : mp42 (isom/iso2/avc1/mp41)
File size                                : 910 MiB
Duration                                 : 1 h 26 min
Overall bit rate mode                    : Variable
Overall bit rate                         : 1 466 kb/s


Video
ID                                       : 1
Format                                   : AVC
Format/Info                              : Advanced Video Codec
Format profile                           : [email protected]
Format settings                          : CABAC / 4 Ref Frames
Format settings, CABAC                   : Yes
Format settings, RefFrames               : 4 frames
Codec ID                                 : avc1
Codec ID/Info                            : Advanced Video Coding
Duration                                 : 1 h 26 min
Bit rate                                 : 1 300 kb/s
Width                                    : 712 pixels
Height                                   : 400 pixels
Display aspect ratio                     : 16:9
Frame rate mode                          : Constant
Frame rate                               : 29.970 (30000/1001) FPS
Color space                              : YUV
Chroma subsampling                       : 4:2:0
Bit depth                                : 8 bits
Scan type                                : Progressive
Bits/(Pixel*Frame)                       : 0.152
Stream size                              : 807 MiB (89%)


Audio
ID                                       : 2
Format                                   : AAC
Format/Info                              : Advanced Audio Codec
Format profile                           : LC
Codec ID                                 : mp4a-40-2
Duration                                 : 1 h 26 min
Bit rate mode                            : Variable
Bit rate                                 : 159 kb/s
Channel(s)                               : 2 channels
Channel positions                        : Front: L R
Sampling rate                            : 48.0 kHz
Frame rate                               : 46.875 FPS (1024 SPF)
Compression mode                         : Lossy
Stream size                              : 99.0 MiB (11%)
Title                                    : Stereo / Stereo
Default                                  : Yes






Share this topic on FacebookShare this topic on GoogleShare this topic on MySpaceShare this topic on TwitterShare this topic on Yahoo

« Last Edit: February 14, 2018, 09:18:19 AM by -Ð@Rk.ÐèVi£- »


Thanks given by:


Tags:
 

Related Topics

  Subject / Started by Replies Last post
0 Replies
188 Views
Last post January 03, 2018, 10:21:34 AM
by -Ð@Rk.ÐèVi£-
0 Replies
172 Views
Last post January 10, 2018, 09:56:44 AM
by -Ð@Rk.ÐèVi£-
0 Replies
154 Views
Last post January 31, 2018, 09:30:55 AM
by -Ð@Rk.ÐèVi£-
0 Replies
149 Views
Last post February 07, 2018, 09:14:35 AM
by -Ð@Rk.ÐèVi£-
0 Replies
210 Views
Last post February 21, 2018, 06:52:03 PM
by тнє ωαll 81317




Back to top